WarezSerbia - Download For All

Do not remember me!
» » Coursera - Economics of Transition and Emerging Markets (2016)
Rapidgator.net

Coursera - Economics of Transition and Emerging Markets (2016)


Coursera - Economics of Transition and Emerging Markets (2016)

Coursera - Economics of Transition and Emerging Markets (2016)

Coursera - Economics of Transition and Emerging Markets
Higher School of Economics with Marek Dabrowski

WEBRip | English | MP4 + PDF Guides | 960 x 540 | AVC ~82.6 kbps | 29.970 fps
AAC | 128 Kbps | 44.1 KHz | 2 channels | Subs: English (.srt) | 08:40:09 | 799 MB
Genre: eLearning Video / Economics

The course analyzes challenges faced by transition and emerging-market economies, i.e., those middle- and low-income countries, which have conducted market-oriented economic reforms and become integrated into the global economy since 1990s.
It starts from a brief history of communist economic system based on central planning in the former Soviet Union and Central and Eastern Europe, its evolution and collapse at the end of 1980s/ early 1990s and subsequent transition to a market system in 1990s and 2000s. Then it analyzes experience of market reforms in China, India, other Asian countries, Middle East and North Africa, Sub-Saharan Africa and Latin America at the same period. Finally, it discusses the problems of contemporary global economy and global and regional economic governance with the special focus given to emerging-market economies and their role.
By the end of the course you will be able to analyse emerging-market economies and economies in transition, taking into account their crucial characteristics and historical experience.

Participation in the course does not require any preconditions, however, basic economic knowledge would be an advantage. In order to pass successfully this course you must score not less than 80% for each of six after module quizzes and complete the peer-assessed essay at the end of the course.

Syllabus

Centrally planned economy: its origins, evolution and collapse
Dear Students, In this module we will discuss the origins of a centrally planned economy, its major characteristics, evolution, attempts of its reform and history of its collapse, agenda of market transition in 1990s and its major components such as macroeconomic stabilization, domestic and external liberalization, and privatization.There will be 7 parts of video-lectures of 7-25 minutes length. You can use recommended literature to go deeper in learning this module. After you watch the video-lectures you are to complete the first quiz. We look forward to seeing you in class! Best wishes,Your course team.

Post-communist transition and its outcomes
Dear Students, In this week we will discuss political economy of transition, controversies over a transition strategy, and first results of transition (at the end of 1990s), interrelations between market and democracy, and between economic and political transition, and the role of external actors in transition process.There will be 5 parts of video-lectures of 7-25 minutes length. You can use recommended literature to go deeper in learning this module. After you watch the video-lectures you are to complete the second quiz. We look forward to seeing you in class! Best wishes,Your course team.

The role of external actors in post-communist transition and economic reforms in Asia
Dear students, In this module we will discuss the role of external actors (IMF, World Bank, WTO, EU, etc.) in economic and political transition in Central and Eastern Europe and former Soviet Union, cumulative results of transition in early/mid 2010s, specifics of Chinese economic transition and its major stages, market reforms in other Asian countries (Vietnam, Laos, Cambodia, Myanmar, Mongolia, India). There will be 5 parts of video-lectures of 7-25 minutes length. You can use recommended literature to go deeper in learning this module. After you watch the video-lectures you are to complete the third quiz. We look forward to seeing you in class! Best wishes, Your course team.

Market reforms in the Arab world, Sub-Saharan Africa and Latin America
Dear students, In this module we will discuss market reforms in the Arab world (including the period of Arab Spring), Sub-Saharan Africa, Latin America, summary of emerging-market reforms since 1980s.There will be 5 parts of video-lectures of 7-25 minutes length. You can use recommended literature to go deeper in learning this module. After you watch the video-lectures you are to complete the fourth quiz. We look forward to seeing you in class! Best wishes,Your course team.

Emerging markets and their role in global economy
Dear students, In this module we will discuss causes and consequences of emerging market-crises in 1980s and 1990s, impact of the global financial crisis of 2008-2009 on emerging-market economies, the increasing role of emerging-market economies in the global economy.There will be 5 parts of video-lectures of 15-25 minutes length. You can use recommended literature to go deeper in learning this module. After you watch the video-lectures you are to complete the fifth quiz. You also have an obligatory peer assessed essay assignment in this module. See the relevant section for further details. We look forward to seeing you in class! Best wishes, Your course team

EMEs, globalization and international trade
Dear students, In this module we will discuss consequences of globalization, changes in international financial institutions, emerging-market economies and global and regional trade systems.There will be 5 parts of video-lectures of 12-20 minutes length. You can use recommended literature to go deeper in learning this module. After you watch the video-lectures you are to complete the sixth quiz. We look forward to seeing you in class! Best wishes,Your course team.

also You can watch my other last:



General
Complete name : 02_Part_2._Origins_of_a_centrally_planned_economy_and_its_major_characteristics._11.26.mp4
Format

: MPEG-4
Format profile : Base Media
Codec ID : isom
File size : 17.9 MiB
Duration : 11mn 26s
Overall bit rate : 219 Kbps
Writing application : Lavf55.19.104

Video
ID

: 1
Format

: AVC
Format/Info : Advanced Video Codec
Format profile : [email protected]
Format settings, CABAC : Yes
Format settings, ReFrames : 4 frames
Codec ID : avc1
Codec ID/Info : Advanced Video Coding
Duration : 11mn 26s
Bit rate : 82.6 Kbps
Width

: 960 pixels
Height

: 540 pixels
Display aspect ratio : 16:9
Frame rate mode : Constant
Frame rate : 29.970 fps
Color space : YUV
Chroma subsampling : 4:2:0
Bit depth : 8 bits
Scan type : Progressive
Bits/(Pixel*Frame) : 0.005
Stream size : 6.76 MiB (38%)
Writing library : x264 core 138
Encoding settings : cabac=1 / ref=3 / deblock=1:0:0 / analyse=0x1:0x111 / me=hex / subme=7 / psy=1 / psy_rd=1.00:0.00 / mixed_ref=1 / me_range=16 / chroma_me=1 / trellis=1 / 8x8dct=0 / cqm=0 / deadzone=21,11 / fast_pskip=1 / chroma_qp_offset=-2 / threads=12 / lookahead_threads=2 / sliced_threads=0 / nr=0 / decimate=1 / interlaced=0 / bluray_compat=0 / constrained_intra=0 / bframes=3 / b_pyramid=2 / b_adapt=1 / b_bias=0 / direct=1 / weightb=1 / open_gop=0 / weightp=2 / keyint=250 / keyint_min=25 / scenecut=40 / intra_refresh=0 / rc_lookahead=40 / rc=crf / mbtree=1 / crf=28.0 / qcomp=0.60 / qpmin=0 / qpmax=69 / qpstep=4 / ip_ratio=1.40 / aq=1:1.00
Language : English

Audio
ID

: 2
Format

: AAC
Format/Info : Advanced Audio Codec
Format profile : LC
Codec ID : 40
Duration : 11mn 26s
Duration_LastFrame : -21ms
Bit rate mode : Constant
Bit rate : 128 Kbps
Channel(s) : 2 channels
Channel positions : Front: L R
Sampling rate : 44.1 KHz
Compression mode : Lossy
Stream size : 10.5 MiB (58%)
Language : English


Coursera - Economics of Transition and Emerging Markets (2016)

Coursera - Economics of Transition and Emerging Markets (2016)


Coursera - Economics of Transition and Emerging Markets (2016)


Coursera - Economics of Transition and Emerging Markets (2016)


Coursera - Economics of Transition and Emerging Markets (2016)





Coursera - Economics of Transition and Emerging Markets (2016)



Coursera - Economics of Transition and Emerging Markets (2016)


DOWNLOAD:


Coursera - Economics of Transition and Emerging Markets (2016)


Feel free to post your Coursera - Economics of Transition and Emerging Markets (2016) Download, torrent, subtitles, free download, quality, NFO, Uploaded.net, ul.to, FileJoker, Rapidgator, Nitroflare, Alfafile, Turbobit, Keep2Share, Mediafire, Watch HD Movies Stream Online, free premium downloads movie, game, mp3 download, crack, serial, keygen, or whatever-related comments here. use only English, Owners of this website aren't responsible for content of comments.

Dear visitor, you are browsing our website as Guest.

We strongly recommend you to register and login to view hidden contents.

Top News

Affiliates

ADVERTISEMENT