WarezSerbia - Download For All

Do not remember me!
» » Coursera: Global Health and Humanitarianism - University of Manchester (2016)
Rapidgator.net

Coursera: Global Health and Humanitarianism - University of Manchester (2016)


Coursera: Global Health and Humanitarianism - University of Manchester (2016)

Coursera: Global Health and Humanitarianism - University of Manchester (2016)

Coursera: Global Health and Humanitarianism - University of Manchester (2016)
WEBRip | English | MP4 | 960 x 540 | AVC ~259 kbps | 29.970 fps
AAC | 117 Kbps | 44.1 KHz | 2 channels | Subs: English (.srt) | 02:55:29 | 538 MB
Genre: eLearning Video / Health & Society

Is humanitarianism an effective, justifiable and sustainable response to ill-health, inequality, injustice and war?
Global health is public health at the global level. It deals with the interconnections between peoples from all over the world. It is based on the idea that it is necessary to cooperate internationally to respond to diseases, disasters and conflicts which now threaten us all. Humanitarianism, in all its various forms, is one such response. In attempting to organise a humanitarian intervention, though, we are confronted by a wide range of problems. Most acute of these is the intense inequality which marks the contemporary world. Public health - its capacities, delivery structures and finances - is profoundly different for the 1 billion people who live in the world's wealthier countries. Those elsewhere have much more limited access to publicly funded or privately insured medicine. As a consequence, non-governmental humanitarian organisations now deliver a large proportion of the world's health care.

This course introduces these issues by looking first at the vague, yet highly contested, notion a global health agenda. It then goes on to consider how and why the world's wealthier countries have sought to develop a response to the emergencies and crises that the vulnerabilities of others have produced. Here, public pressure and the ethical imperative to bear witness when confronted with such suffering are especially important. Finally, the course considers whether or not humanitarian assistance can be considered a right. It looks at the emerging Responsibility to Protect agenda and the associated moral dilemmas around sovereignty, post-colonialism and duty-based ethics.

Within this context, the course explores these critical normative and logistical questions:

- Is humanitarian aid as a concept, as simple as the rich helping the poor?
- Are these interventions well-meaning and effective?
- Should governments be committing tax revenues - involuntarily given - to improve the health of others far away?
- Do those that can afford it have a responsibility to act in some way?
- What does receipt of aid mean for the recipient country, its leadership, its future, and its responsibility?
- Must people be helped only according to need, regardless of what a regime might have done?
- Must humanitarians remain neutral - silent perhaps - in the face of injustice in order to ensure access?
- Must the causes of inequality, suffering and violence be ignored in favour of access, action and outcome?

also You can watch my other last:



General
Complete name : 04_Video_2.4-_Case_Study-_Pandemic_Influenza_Outbreak_WW1_05-17.mp4
Format

: MPEG-4
Format profile : Base Media
Codec ID : isom
File size : 14.6 MiB
Duration : 5mn 17s
Overall bit rate mode : Variable
Overall bit rate : 385 Kbps
Writing application : Lavf55.10.100

Video
ID

: 1
Format

: AVC
Format/Info : Advanced Video Codec
Format profile : [email protected]
Format settings, CABAC : Yes
Format settings, ReFrames : 4 frames
Codec ID : avc1
Codec ID/Info : Advanced Video Coding
Duration : 5mn 17s
Bit rate : 259 Kbps
Width

: 960 pixels
Height

: 540 pixels
Display aspect ratio : 16:9
Frame rate mode : Constant
Frame rate : 29.970 fps
Color space : YUV
Chroma subsampling : 4:2:0
Bit depth : 8 bits
Scan type : Progressive
Bits/(Pixel*Frame) : 0.017
Stream size : 9.80 MiB (67%)
Writing library : x264 core 129 r2230 1cffe9f
Encoding settings : cabac=1 / ref=3 / deblock=1:0:0 / analyse=0x1:0x111 / me=hex / subme=7 / psy=1 / psy_rd=1.00:0.00 / mixed_ref=1 / me_range=16 / chroma_me=1 / trellis=1 / 8x8dct=0 / cqm=0 / deadzone=21,11 / fast_pskip=1 / chroma_qp_offset=-2 / threads=12 / lookahead_threads=2 / sliced_threads=0 / nr=0 / decimate=1 / interlaced=0 / bluray_compat=0 / constrained_intra=0 / bframes=3 / b_pyramid=2 / b_adapt=1 / b_bias=0 / direct=1 / weightb=1 / open_gop=0 / weightp=2 / keyint=250 / keyint_min=25 / scenecut=40 / intra_refresh=0 / rc_lookahead=40 / rc=crf / mbtree=1 / crf=28.0 / qcomp=0.60 / qpmin=0 / qpmax=69 / qpstep=4 / ip_ratio=1.40 / aq=1:1.00

Audio
ID

: 2
Format

: AAC
Format/Info : Advanced Audio Codec
Format profile : LC
Codec ID : 40
Duration : 5mn 17s
Duration_LastFrame : -10ms
Bit rate mode : Variable
Bit rate : 117 Kbps
Maximum bit rate : 128 Kbps
Channel(s) : 2 channels
Channel positions : Front: L R
Sampling rate : 44.1 KHz
Compression mode : Lossy
Stream size : 4.44 MiB (30%)


Coursera: Global Health and Humanitarianism - University of Manchester (2016)


Coursera: Global Health and Humanitarianism - University of Manchester (2016)





Coursera: Global Health and Humanitarianism - University of Manchester (2016)



Coursera: Global Health and Humanitarianism - University of Manchester (2016)



DOWNLOAD:


Coursera: Global Health and Humanitarianism - University of Manchester (2016)


Feel free to post your Coursera: Global Health and Humanitarianism - University of Manchester (2016) Download, torrent, subtitles, free download, quality, NFO, Uploaded.net, ul.to, FileJoker, Rapidgator, Nitroflare, Alfafile, Turbobit, Keep2Share, Mediafire, Watch HD Movies Stream Online, free premium downloads movie, game, mp3 download, crack, serial, keygen, or whatever-related comments here. use only English, Owners of this website aren't responsible for content of comments.

Dear visitor, you are browsing our website as Guest.

We strongly recommend you to register and login to view hidden contents.

Top News

Affiliates

ADVERTISEMENT