WarezSerbia - Download For All

Do not remember me!
» » Coursera - Global Environmental Management (2016)
UploadGIG.com

Coursera - Global Environmental Management (2016)


Coursera - Global Environmental Management (2016)

Coursera - Global Environmental Management (2016)

Coursera - Global Environmental Management (2016)
Technical University of Denmark

WEBRip | English | MP4 | 960 x 540 | AVC ~235 kbps | 29.970 fps
AAC | 128 Kbps | 44.1 KHz | 1 channel | Subs: English (.srt) | 05:07:44 | 0.99 GB
Genre: eLearning Video / Environment, Physical & Earth Sciences

Learn about the best environmental technologies for a sustainable development and how they are managed in various settings around the world.
This course gives you an opportunity to learn about global trends that influence our environment and the living conditions and how different management systems and approaches that are used around the world to manage the environment. This includes current environmental technologies built for the environment and technologies for sustainable soil management, groundwater protection methods and integrated Water resources management.

Syllabus

WEEK/MODULE 1: Global Trends

In the first week we will set the stage for the next weeks. This week presents some of the global trends that influence our environment and the living conditions. We will in particular look at Sustainable development, demography, various aspects of urbanization, climate change and environmental Health. In addition to the videos produced for this course, see also the IPCC AR5 Synthesis Report as this is also part of the exam.

WEEK/MODULE 2: Environmental Management

This week we look into different management systems and approaches that are used around the world. Management styles and systems are implemented depending on various factors like culture, history and physical layout of the country. We will see it from general introductions and look at three case presentations.

WEEK/MODULE 3: Utility Management

This week we look in how the various utilities manage the environment. We will e.g. look at how the general water supply, waste water systems and solid waste are managed and how other pollution sources are regulated.

WEEK/MODULE 4: Technologies for the Built Environment

In week 4 we look at some of the current environmental technologies that are particularly effective in carrying out their purpose and in an environmental friendly way. We look at how we choose among different technologies and study storm water technologies, urban water supply and solid waste handling.

WEEK/MODULE 5: Other Technologies

In the last week we look at the environmental technologies that are not part of the regular urban water systems. We will in particular focus on technologies for sustainable soil management, groundwater protection methods and integrated Water resources management.

also You can watch my other last:



General
Complete name : 01_Groundwater_Protection_Philip_Binning.mp4
Format

: MPEG-4
Format profile : Base Media
Codec ID : isom
File size : 32.9 MiB
Duration : 12mn 23s
Overall bit rate : 371 Kbps
Writing application : Lavf55.19.104

Video
ID

: 1
Format

: AVC
Format/Info : Advanced Video Codec
Format profile : [email protected]
Format settings, CABAC : Yes
Format settings, ReFrames : 4 frames
Codec ID : avc1
Codec ID/Info : Advanced Video Coding
Duration : 12mn 23s
Bit rate : 235 Kbps
Width

: 960 pixels
Height

: 540 pixels
Display aspect ratio : 16:9
Frame rate mode : Constant
Frame rate : 29.970 fps
Color space : YUV
Chroma subsampling : 4:2:0
Bit depth : 8 bits
Scan type : Progressive
Bits/(Pixel*Frame) : 0.015
Stream size : 20.8 MiB (63%)
Writing library : x264 core 138
Encoding settings : cabac=1 / ref=3 / deblock=1:0:0 / analyse=0x1:0x111 / me=hex / subme=7 / psy=1 / psy_rd=1.00:0.00 / mixed_ref=1 / me_range=16 / chroma_me=1 / trellis=1 / 8x8dct=0 / cqm=0 / deadzone=21,11 / fast_pskip=1 / chroma_qp_offset=-2 / threads=12 / lookahead_threads=2 / sliced_threads=0 / nr=0 / decimate=1 / interlaced=0 / bluray_compat=0 / constrained_intra=0 / bframes=3 / b_pyramid=2 / b_adapt=1 / b_bias=0 / direct=1 / weightb=1 / open_gop=0 / weightp=2 / keyint=250 / keyint_min=25 / scenecut=40 / intra_refresh=0 / rc_lookahead=40 / rc=crf / mbtree=1 / crf=28.0 / qcomp=0.60 / qpmin=0 / qpmax=69 / qpstep=4 / ip_ratio=1.40 / aq=1:1.00
Language : English

Audio
ID

: 2
Format

: AAC
Format/Info : Advanced Audio Codec
Format profile : LC
Codec ID : 40
Duration : 12mn 23s
Duration_LastFrame : -12ms
Bit rate mode : Constant
Bit rate : 128 Kbps
Channel(s) : 2 channels
Channel(s)_Original : 1 channel
Channel positions : Front: C
Sampling rate : 44.1 KHz
Compression mode : Lossy
Stream size : 11.3 MiB (34%)
Language : English


Coursera - Global Environmental Management (2016)


Coursera - Global Environmental Management (2016)


Coursera - Global Environmental Management (2016)



Coursera - Global Environmental Management (2016)




Coursera - Global Environmental Management (2016)




Coursera - Global Environmental Management (2016)
Coursera - Global Environmental Management (2016)


Coursera - Global Environmental Management (2016)



DOWNLOAD:


Coursera - Global Environmental Management (2016)


Feel free to post your Coursera - Global Environmental Management (2016) Download, torrent, subtitles, free download, quality, NFO, Uploaded.net, ul.to, FileJoker, Rapidgator, Nitroflare, Alfafile, Turbobit, Keep2Share, Mediafire, Watch HD Movies Stream Online, free premium downloads movie, game, mp3 download, crack, serial, keygen, or whatever-related comments here. use only English, Owners of this website aren't responsible for content of comments.

Dear visitor, you are browsing our website as Guest.

We strongly recommend you to register and login to view hidden contents.

Top News

Affiliates

ADVERTISEMENT