WarezSerbia - Download For All

Do not remember me!
» » The Day 2011 Repack BDRip x264-IPT
Rapidgator.net

The Day 2011 Repack BDRip x264-IPT

The Day 2011 Repack BDRip x264-IPT

Title: The Day
Year: 2011
Genre: Drama, Sci-Fi, Thriller
Rating: ? (481 Votes)
Runtime: 85 min
Director: Douglas Aarniokoski
Cast: Shawn Ashmore, Ashley Bell, Michael Eklund
Plot: A group of five people working to stay alive in a post-apocalyptic future discover what they think is a safe, abandoned farmhouse, but they soon find themselves fighting to stay alive as a gang of bloodthirsty predators attack.
IMDb URL: http://www.imdb.com/title/tt1756799/

Info
General
Complete name : The.Day.2011.Repack.BDRip.x264-IPT.mp4
Format : MPEG-4
Format profile : Base Media
Codec ID : isom
File size : 1.38 GiB
Duration : 1h 30mn
Overall bit rate mode : Variable
Overall bit rate : 2 193 Kbps
Encoded date : UTC 2012-10-24 15:14:40
Tagged date : UTC 2012-10-24 15:14:40

Video
ID : 1
Format : AVC
Format/Info : Advanced Video Codec
Format profile : [email protected]
Format settings, CABAC : Yes
Format settings, ReFrames : 4 frames
Codec ID : avc1
Codec ID/Info : Advanced Video Coding
Duration : 1h 30mn
Bit rate : 2 014 Kbps
Maximum bit rate : 32.9 Mbps
Width : 720 pixels
Height : 404 pixels
Display aspect ratio : 16:9
Frame rate mode : Constant
Frame rate : 24.000 fps
Color space : YUV
Chroma subsampling : 4:2:0
Bit depth : 8 bits
Scan type : Progressive
Bits/(Pixel*Frame) : 0.288
Stream size : 1.27 GiB (92%)
Title : Video
Audio
ID : 2
Format : AAC
Format/Info : Advanced Audio Codec
Format profile : LC
Codec ID : 40
Duration : 1h 30mn
Bit rate mode : Variable
Bit rate : 171 Kbps
Maximum bit rate : 215 Kbps
Channel(s) : 2 channels
Channel positions : Front: L R
Sampling rate : 48.0 KHz
Compression mode : Lossy
Stream size : 110 MiB (8%)
Language : English
Encoded date : UTC 2012-10-24 15:14:48
Tagged date : UTC 2012-10-24 15:14:51


Screens
The Day 2011 Repack BDRip x264-IPT


Download
http://rapidgator.net/file/52267449/td.2011.part1.rar.html
http://rapidgator.net/file/52267525/td.2011.part2.rar.html
http://rapidgator.net/file/52267688/td.2011.part3.rar.html

http://turbobit.net/08l3yiaqrab6/td.2011.part1.rar.html
http://turbobit.net/14vztwvz55ku/td.2011.part2.rar.html
http://turbobit.net/e8gusq8nfmxp/td.2011.part3.rar.html

http://ul.to/wmgmqn1y
http://ul.to/1t11k0q0
http://ul.to/ojjvq5jr


Download single link
http://extabit.com/file/27t01cwqrl87q/The.Day.2011.Repack.BDRip.x264-IPT.mp4

http://netload.in/dateiWB5PJBLZZO/The.Day.2011.Repack.BDRip.x264-IPT.mp4.htm

The Day 2011 Repack BDRip x264-IPT


Feel free to post your The Day 2011 Repack BDRip x264-IPT Download, torrent, subtitles, free download, quality, NFO, Uploaded, ul.to, Mediafire, Rapidgator, 4shared, Firedrive, Turbobit, Netload, Letitbit, movie, game, mp3 download, crack, serial, keygen, or whatever-related comments here. use only English, Owners of this website aren't responsible for content of comments.

Dear visitor, you are browsing our website as Guest.

We strongly recommend you to register and login to view hidden contents.

Top News

Affiliates

Free Downloads Free Full Warez Download @ dirtywarez.com

ADVERTISEMENT