» » The Big Fix 2011 STV DOCU DVDRip XviD-MARGiN

The Big Fix 2011 STV DOCU DVDRip XviD-MARGiN

Author: Savke on 17-10-2012, 23:00
The Big Fix 2011 STV DOCU DVDRip XviD-MARGiN

Title: The Big Fix
Year: 2011
Genre: Documentary
Rating: ? (149 Votes)
Runtime: ?
Director: Joshua Tickell
Cast: Peter Fonda, Amy Smart, Joshua Tickell
Plot: A documentary that examines the April 2010 oil spill in the Gulf of Mexico following the sinking of the Deepwater Horizon oil rig.
IMDb URL: http://www.imdb.com/title/tt1939753/

Info:
General
Complete name : margin-bigfix.avi
Format : AVI
Format/Info : Audio Video Interleave
File size : 699 MiB
Duration : 1h 30mn
Overall bit rate mode : Variable
Overall bit rate : 1 082 Kbps

Video
ID : 0
Format : MPEG-4 Visual
Format profile : Advanced Simple@L5
Format settings, BVOP : 1
Format settings, QPel : No
Format settings, GMC : No warppoints
Format settings, Matrix : Default (H.263)
Codec ID : XVID
Codec ID/Hint : XviD
Duration : 1h 30mn
Bit rate : 926 Kbps
Width : 640 pixels
Height : 352 pixels
Display aspect ratio : 16:9
Frame rate : 23.976 fps
Color space : YUV
Chroma subsampling : 4:2:0
Bit depth : 8 bits
Scan type : Progressive
Compression mode : Lossy
Bits/(Pixel*Frame) : 0.171
Stream size : 598 MiB (86%)
Writing library : XviD 1.2.1 (UTC 2008-12-04)

Audio
ID : 1
Format : MPEG Audio
Format version : Version 1
Format profile : Layer 3
Mode : Joint stereo
Mode extension : MS Stereo
Codec ID : 55
Codec ID/Hint : MP3
Duration : 1h 30mn
Bit rate mode : Variable
Bit rate : 143 Kbps
Nominal bit rate : 160 Kbps
Channel(s) : 2 channels
Sampling rate : 48.0 KHz
Compression mode : Lossy
Stream size : 92.5 MiB (13%)
Alignment : Aligned on interleaves
Interleave, duration : 24 ms (0.58 video frame)
Interleave, preload duration : 193 ms
Title : bigfix-en_new
Writing library : LAME3.99r
Encoding settings : -m j -V 4 -q 2 -lowpass 17.5 --abr 160


Screens
The Big Fix 2011 STV DOCU DVDRip XviD-MARGiN


Download
http://rapidgator.net/file/51270276/The.Big.Fix.2011.part1.rar.html
http://rapidgator.net/file/51270372/The.Big.Fix.2011.part2.rar.html
http://rapidgator.net/file/51270446/The.Big.Fix.2011.part3.rar.html

http://turbobit.net/vy3o7zubcyr0/The.Big.Fix.2011.part1.rar.html
http://turbobit.net/3kw6tl8tvlk9/The.Big.Fix.2011.part2.rar.html
http://turbobit.net/6fownfg8cbiy/The.Big.Fix.2011.part3.rar.html

http://ul.to/zekarhn7
http://ul.to/bf875y14
http://ul.to/1oa2zjam


Download single link
http://extabit.com/file/28wf38ony7p03/margin-bigfix.avi

http://katzfiles.com/f2hdnv0xd04t/margin-bigfix.avi.html

Feel free to post your The Big Fix 2011 STV DOCU DVDRip XviD-MARGiN Download, torrent, subtitles, free download, quality, NFO, Uploaded, ul.to, Mediafire, Rapidgator, 4shared, Firedrive, Turbobit, Netload, Letitbit, movie, game, mp3 download, crack, serial, keygen, or whatever-related comments here. use only English, Owners of this website aren't responsible for content of comments.

Please Login or Create a FREE Account to Post Comments
Name:*
E-Mail:
Comments:
Bold Italic Underline Strike | Align left Center Align right | Insert smilies Insert link URLInsert protected URL Select color | Add Hidden Text Insert Quote Convert selected text from selection to Cyrillic (Russian) alphabet Insert spoiler
TOP